18+ Grindhouse Nightmares 2017 UNCENSORED Movies HDRip x264 with ...

  • Category Movies
  • Type HD
  • Language English
  • Total size 704.6 MB
  • Uploaded By nehalpuja
  • Downloads 1597
  • Last checked 3 days ago
  • Date uploaded 1 week ago
  • Seeders 33
  • Leechers 11

Infohash : 70D3BB8D1433939A7FC0A5AA842C42EF3AC3B353

18+ Grindhouse Nightmares 2017 UNCENSORED Movies HDRip x264 with Sample ☻rDX☻
===============================================================================================

SCREEN SHOTS:



or

http://postimage.co.nr/2018/2/course/1.html

File size : 695 MiB
Duration : 1 h 13 min
Overall bit rate : 1 315 kb/s
Movie name : 18+ Grindhouse Nightmares 2017 UNCENSORED Movies HDRip x264 ☻rDX☻

Video
ID : 2
Format : MPEG-4 Visual
Format profile : Advanced [email protected]
Format settings, BVOP : 2
Format settings, QPel : No
Format settings, GMC : No warppoints
Format settings, Matrix : Default (H.263)
Muxing mode : Packed bitstream
Codec ID : V_MS/VFW/FOURCC / XVID
Codec ID/Hint : XviD
Duration : 1 h 13 min
Bit rate : 1 161 kb/s
Width : 640 pixels
Height : 272 pixels
Display aspect ratio : 2.35:1
Frame rate mode : Constant
Frame rate : 23.976 (24000/1001) FPS
Color space : YUV
Chroma subsampling : 4:2:0
Bit depth : 8 bits
Scan type : Progressive
Compression mode : Lossy
Bits/(Pixel*Frame) : 0.278
Stream size : 613 MiB (88%)
Title : ☻rDX☻
Writing library : XviD 67
Default : Yes
Forced : No

Audio
ID : 1
Format : MPEG Audio
Format version : Version 1
Format profile : Layer 3
Mode : Joint stereo
Codec ID : A_MPEG/L3
Codec ID/Hint : MP3
Duration : 1 h 13 min
Bit rate mode : Constant
Bit rate : 128 kb/s
Channel(s) : 2 channels
Sampling rate : 48.0 kHz
Compression mode : Lossy
Stream size : 67.6 MiB (10%)
Title : ☻rDX☻
Writing library : LAME3.99r
Default : Yes
Forced : No



IMDB : http://www.imdb.com/title/tt7520216

Files:

18+ Grindhouse Nightmares 2017 UNCENSORED Movies HDRip x264 with Sample ☻rDX☻
  • Sample ~ 18+ Grindhouse Nightmares 2017 UNCENSORED Movies HDRip x264 ☻rDX☻.mkv (10.0 MB)
  • 18+ Grindhouse Nightmares 2017 UNCENSORED Movies HDRip x264 ☻rDX☻.mkv (694.7 MB)

There are currently no comments. Feel free to leave one :)

Code:

  • udp://tracker.coppersurfer.tk:6969/announce
  • udp://tracker.openbittorrent.com:80/announce
  • udp://glotorrents.pw:6969/announce
  • udp://tracker.publicbt.com:80/announce
  • http://retracker.krs-ix.ru/announce
  • udp://tracker.pomf.se:80/announce
  • udp://explodie.org:6969/announce
  • http://mgtracker.org:2710/announce
  • http://tracker.aletorrenty.pl:2710/announce
  • http://tracker.btcake.com/announce
  • udp://tracker.openbittorrent.com:80/announce
  • udp://tracker.leechers-paradise.org:6969/announce
  • udp://coppersurfer.tk:6969/announce